Code:
General
Format                                   : MPEG-4
Format profile                           : Base Media / Version 2
Codec ID                                 : mp42 (isom/iso2/avc1/mp41)
File size                                : 3.23 GiB
Duration                                 : 2 h 31 min
Overall bit rate mode                    : Variable
Overall bit rate                         : 3 060 kb/s
Encoded date                             : UTC 2017-03-11 20:00:30
Tagged date                              : UTC 2017-03-11 20:00:30
Writing application                      : HandBrake 1.0.2 2017012200

Video
ID                                       : 1
Format                                   : AVC
Format/Info                              : Advanced Video Codec
Format profile                           : [email protected]
Format settings, CABAC                   : Yes
Format settings, ReFrames                : 4 frames
Codec ID                                 : avc1
Codec ID/Info                            : Advanced Video Coding
Duration                                 : 2 h 31 min
Bit rate                                 : 2 924 kb/s
Width                                    : 1 920 pixels
Height                                   : 1 080 pixels
Display aspect ratio                     : 16:9
Frame rate mode                          : Constant
Frame rate                               : 25.000 FPS
Color space                              : YUV
Chroma subsampling                       : 4:2:0
Bit depth                                : 8 bits
Scan type                                : Progressive
Bits/(Pixel*Frame)                       : 0.056
Stream size                              : 3.09 GiB (96%)
Writing library                          : x264 core 148 r2708 86b7198
Encoding settings                        : cabac=1 / ref=2 / deblock=1:0:0 / analyse=0x3:0x113 / me=hex / subme=6 / psy=1 / psy_rd=1.00:0.00 / mixed_ref=1 / me_range=16 / chroma_me=1 / trellis=1 / 8x8dct=1 / cqm=0 / deadzone=21,11 / fast_pskip=1 / chroma_qp_offset=-2 / threads=34 / lookahead_threads=5 / sliced_threads=0 / nr=0 / decimate=1 / interlaced=0 / bluray_compat=0 / constrained_intra=0 / bframes=3 / b_pyramid=2 / b_adapt=1 / b_bias=0 / direct=1 / weightb=1 / open_gop=0 / weightp=1 / keyint=250 / keyint_min=25 / scenecut=40 / intra_refresh=0 / rc_lookahead=30 / rc=abr / mbtree=1 / bitrate=2924 / ratetol=1.0 / qcomp=0.60 / qpmin=0 / qpmax=69 / qpstep=4 / ip_ratio=1.40 / aq=1:1.00
Encoded date                             : UTC 2017-03-11 20:00:30
Tagged date                              : UTC 2017-03-11 20:00:30
Color range                              : Limited
Color primaries                          : BT.709
Transfer characteristics                 : BT.709
Matrix coefficients                      : BT.709

Audio
ID                                       : 2
Format                                   : AAC
Format/Info                              : Advanced Audio Codec
Format profile                           : LC
Codec ID                                 : 40
Duration                                 : 2 h 31 min
Bit rate mode                            : Variable
Bit rate                                 : 128 kb/s
Channel(s)                               : 2 channels
Channel positions                        : Front: L R
Sampling rate                            : 44.1 kHz
Frame rate                               : 43.066 FPS (1024 spf)
Compression mode                         : Lossy
Stream size                              : 138 MiB (4%)
Title                                    : Stereo / Stereo
Default                                  : Yes
Alternate group                          : 1
Encoded date                             : UTC 2017-03-11 20:00:30
Tagged date                              : UTC 2017-03-11 20:00:30





SINGLE DIRECT FAST LINKS

Code:
http://www.heroupload.com/910680a552013119/Janatha.Garage.2016.Telugu.WEBHD.1080p.Hx264.AVC.AAC-WarezRock.mp4
700MB LINKS

Code:
http://www.heroupload.com/c3d99af25878c989/Janatha.Garage.2016.Telugu.WEBHD.1080p.Hx264.AVC.AAC-WarezRock.mp4.001
http://www.heroupload.com/fc358ff81d228d87/Janatha.Garage.2016.Telugu.WEBHD.1080p.Hx264.AVC.AAC-WarezRock.mp4.002
http://www.heroupload.com/fadb1ca5a7bbc73d/Janatha.Garage.2016.Telugu.WEBHD.1080p.Hx264.AVC.AAC-WarezRock.mp4.003
http://www.heroupload.com/732e232fda9c73dd/Janatha.Garage.2016.Telugu.WEBHD.1080p.Hx264.AVC.AAC-WarezRock.mp4.004
http://www.heroupload.com/9d11b250fc78aa98/Janatha.Garage.2016.Telugu.WEBHD.1080p.Hx264.AVC.AAC-WarezRock.mp4.005